El dia mas largo |1962|Bélica|BDrip 1080 x264.mkv|cast.ac3.dts;eng.dtsma|sub.idx|12,2GB

MONTAJE PROPIO

************************************************** *****
************************************************** *******
************************************************** *****

El dia mas largo

TÍTULO ORIGINAL The Longest Day
AÑO 1962
DURACIÓN 180 min.
PAÍS [Estados Unidos]
DIRECTOR Ken Annakin, Andrew Marton, Bernhard Wicki
GUIÓN Cornelius Ryan (Novela: Cornelius Ryan)
MÚSICA Maurice Jarre
FOTOGRAFÍA Jean Bourglin & Walter Wottitz (B&W)
REPARTO John Wayne, Robert Mitchum, Henry Fonda, Richard Burton, Sean Connery, Curd Jurgens, Rod Steiger, Robert Ryan, Eddie Albert, Peter Lawford, Gert Frobe, Robert Wagner, Sal Mineo, Mel Ferrer, Richard Todd, Richard Beymer, Bourvil
PRODUCTORA 20th Century Fox / Darryl F. Zanuck Production
PREMIOS 1962: 2 Oscars: Mejores efectos especiales, fotografía B/N. 5 nominaciones
1962: National Board of Review: Mejor película
1962: Premios David di Donatello: Mejor producción extranjera
GÉNERO Bélico. Acción | II Guerra Mundial. Cine épico
SINOPSIS Segunda Guerra Mundial (1939-1945). Minucioso relato del desembarco de las tropas aliadas en las playas de Normandía el 6 de junio de 1944, día que señaló el comienzo del fin de la dominación nazi sobre Europa. En este ataque participaron 3.000.000 de hombres, 11.000 aviones y 4.000 barcos. (FILMAFFINITY)

Puntuación Filmaffinity : 7,3

************************************************** ************************************************** ***************


Formato: Matroska
Tamaño: 12,2GB
Codec Video: AVC
Resolucion: 1920×816
Format profile: High@L4.1 Marcos 4
Frame Rate: 23.976 fps
Audio : Castellano; AC3 640 kbps ; 6 canales
Audio : Castellano; DTS 755 kbps ; 6 canales
Audio : Inglés; DTS 1510 kbps ; 6 canales
Subs: Subtitulos Castellano Forzados, Subtitulos Castellano, Subtitulos Inglés

Archivos .rar 200mb aprox. + 5 archivos de recuperación .rev + 10% de recuperacion; 1 Archivo de verificación .sfv

¡¡¡¡Archivos intercambiables!!!

************************************************** ************************************************** *****************

MediaInfo

Spoiler

General
Unique ID : 231458926460710768087946960898547473934 (0xAE215E23FD0CEB4599DC75BA2F175E0E)
Complete name :Eldiamaslargo.BDRip.1080.esKuaK.mkv
Format : Matroska
Format version : Version 2
File size : 12.2 GiB
Duration : 2h 58mn
Overall bit rate : 9 815 Kbps
Encoded date : UTC 2013-03-19 12:34:01
Writing application : mkvmerge v5.1.0 (‘And so it goes’) built on Nov 28 2011 23:58:28
Writing library : libebml v1.2.3 + libmatroska v1.3.0

Video
ID : 1
Format : AVC
Format/Info : Advanced Video Codec
Format profile : High@L4.1
Format settings, CABAC : Yes
Format settings, ReFrames : 4 frames
Codec ID : V_MPEG4/ISO/AVC
Duration : 2h 58mn
Bit rate : 5 359 Kbps
Width : 1 920 pixels
Height : 816 pixels
Display aspect ratio : 2.35:1
Frame rate mode : Constant
Frame rate : 23.976 fps
Color space : YUV
Chroma subsampling : 4:2:0
Bit depth : 8 bits
Scan type : Progressive
Bits/(Pixel*Frame) : 0.143
Stream size : 6.47 GiB (53%)
Title : El dia mas largo BDrip 1080 by esKuaK
Writing library : x264 core 129 r2230 1cffe9f
Language : English
Default : Yes
Forced : No

Audio #1
ID : 2
Format : AC-3
Format/Info : Audio Coding 3
Mode extension : CM (complete main)
Format settings, Endianness : Big
Codec ID : A_AC3
Duration : 2h 58mn
Bit rate mode : Constant
Bit rate : 640 Kbps
Channel(s) : 6 channels
Channel positions : Front: L C R, Side: L R, LFE
Sampling rate : 48.0 KHz
Bit depth : 16 bits
Compression mode : Lossy
Stream size : 816 MiB (7%)
Title : AC3 Castellano
Language : Spanish
Default : Yes
Forced : No

Audio #2
ID : 3
Format : DTS
Format/Info : Digital Theater Systems
Mode : 16
Format settings, Endianness : Big
Codec ID : A_DTS
Duration : 2h 58mn
Bit rate mode : Constant
Bit rate : 768 Kbps
Channel(s) : 6 channels
Channel positions : Front: L C R, Side: L R, LFE
Sampling rate : 48.0 KHz
Bit depth : 24 bits
Compression mode : Lossy
Stream size : 980 MiB (8%)
Title : DTS Castellano
Language : Spanish
Default : No
Forced : No

Audio #3
ID : 4
Format : DTS
Format/Info : Digital Theater Systems
Format profile : HRA / Core
Mode : 16
Format settings, Endianness : Big
Codec ID : A_DTS
Duration : 2h 58mn
Bit rate mode : Constant
Bit rate : 3 018 Kbps / 1 509 Kbps
Channel(s) : 6 channels
Channel positions : Front: L C R, Side: L R, LFE
Sampling rate : 48.0 KHz
Bit depth : 24 bits
Compression mode : Lossy
Stream size : 3.76 GiB (31%)
Title : DTS Inglés
Language : English
Default : No
Forced : No

Text #1
ID : 5
Format : VobSub
Muxing mode : zlib
Codec ID : S_VOBSUB
Codec ID/Info : The same subtitle format used on DVDs
Title : Subtitulos Forzados Castellano
Language : Spanish
Default : Yes
Forced : No

Text #2
ID : 6
Format : VobSub
Muxing mode : zlib
Codec ID : S_VOBSUB
Codec ID/Info : The same subtitle format used on DVDs
Title : Subtitulos Castellano
Language : Spanish
Default : No
Forced : No

Text #3
ID : 7
Format : PGS
Muxing mode : zlib
Codec ID : S_HDMV/PGS
Codec ID/Info : The same subtitle format used on BDs/HD-DVDs
Title : Subtitulos Castellano
Language : Spanish
Default : No
Forced : No

Text #4
ID : 8
Format : VobSub
Muxing mode : zlib
Codec ID : S_VOBSUB
Codec ID/Info : The same subtitle format used on DVDs
Title : Subtitulos Inglés
Language : English
Default : No
Forced : No

Text #5
ID : 9
Format : PGS
Muxing mode : zlib
Codec ID : S_HDMV/PGS
Codec ID/Info : The same subtitle format used on BDs/HD-DVDs
Title : Subtitulos Inglés
Language : English
Default : No
Forced : No

Menu
00:00:00.000 : en:00:00:00.000
00:06:01.278 : en:00:06:01.278
00:09:52.300 : en:00:09:52.300
00:15:09.242 : en:00:15:09.242
00:21:10.769 : en:00:21:10.769
00:23:56.352 : en:00:23:56.352
00:27:13.048 : en:00:27:13.048
00:30:30.454 : en:00:30:30.454
00:32:49.426 : en:00:32:49.426
00:37:22.323 : en:00:37:22.323
00:40:42.148 : en:00:40:42.148
00:45:15.713 : en:00:45:15.713
00:50:05.586 : en:00:50:05.586
00:57:55.639 : en:00:57:55.639
01:01:25.932 : en:01:01:25.932
01:07:20.203 : en:01:07:20.203
01:11:27.992 : en:01:11:27.992
01:17:54.003 : en:01:17:54.003
01:24:32.776 : en:01:24:32.776
01:32:34.591 : en:01:32:34.591
01:41:22.493 : en:01:41:22.493
01:47:10.257 : en:01:47:10.257
01:48:21.078 : en:01:48:21.078
01:54:35.452 : en:01:54:35.452
01:57:30.710 : en:01:57:30.710
01:58:36.860 : en:01:58:36.860
02:02:32.053 : en:02:02:32.053
02:03:48.588 : en:02:03:48.588
02:05:35.027 : en:02:05:35.027
02:06:38.216 : en:02:06:38.216
02:16:12.414 : en:02:16:12.414
02:17:28.073 : en:02:17:28.073
02:20:36.428 : en:02:20:36.428
02:22:46.516 : en:02:22:46.516
02:31:57.692 : en:02:31:57.692
02:36:18.703 : en:02:36:18.703
02:37:30.650 : en:02:37:30.650
02:40:50.224 : en:02:40:50.224
02:47:31.959 : en:02:47:31.959
02:53:16.177 : en:02:53:16.177

************************************************** ******************

************************************************** ******************

Enlaces

Archivos .rar 200mb aprox. + 5 archivos de recuperación .rev + 10% de recuperacion; 1 Archivo de verificación .sfv

Código:


http://94a3fc39.miniurls.co


Descarga de los verdaderos montadores, siempre tendrás soporte para todos sus aportes.

Cualquier tema, duda, error, aportes eliminados,problema de visualizacion en (HDD Multimedia, Reproductor Multimedia, PC, HTPC). Postearlo en el tema correspondiente. Siempre contesto y doy soluciones, también podeis mandarme un M.P. No olvideis dar al boton de gracias y comentar.

************************************************** ********************************
************************************************** ********************************

Programas Necesarios y/o Recomendados


JDownloader o Mipony : Gestor de descargas. Winrar o 7Zip Compresor/descompresor de archivos .Rar o .7Zip . QuickSFV o FlashSFV Verifica archivos .rar (Recomendable). HJSplitt Une las partes comprimidas en 7zip

************************************************** ********************************

Agradeceria comentario despues de visualizar el aporte. Gracias. Un saludo

PorDescargaDirecta

Llegaron buscando:

  • yhs-playfree

Tags: , , ,

You can leave a comment, or trackback.

Deja un comentario

Tu dirección de correo electrónico no será publicada. Los campos necesarios están marcados *

Puedes usar las siguientes etiquetas y atributos HTML: <a href="" title=""> <abbr title=""> <acronym title=""> <b> <blockquote cite=""> <cite> <code> <del datetime=""> <em> <i> <q cite=""> <strike> <strong>


Featuring Advanced Search Functions plugin by YD